Авторизация:
E-Mail: Пароль:
Закрыть
RU | EN

Grand Funk Railroad - Live in L.A. (1974) LDRip

Опубликовано: 2020-05-21 08:22:09
Этот текст доступен по адресу: http://ontext.info/123018
Общее
Уникальный идентификатор : 40456267630114848388908137305473949352 (0x1E6F97FE790FA02386A0E121E39E1EA8)
Полное имя : D:\Хранилище\Видео\Grand Funk Railroad\Grand.Funk.Live.in.L.A.mkv
Формат : Matroska
Версия формата : Version 4
Размер файла : 1,11 Гбайт
Продолжительность : 55 м. 4 с.
Общий поток : 2886 Кбит/сек
Дата кодирования : UTC 2020-05-20 15:13:23
Программа кодирования : mkvmerge v43.0.0 ('The Quartermaster') 64-bit
Библиотека кодирования : libebml v1.3.10 libmatroska v1.5.2
Обложка : Yes
Attachments : cover.jpg

Видео
Идентификатор : 1
Формат : AVC
Формат/Информация : Advanced Video Codec
Профиль формата : High@L3.2
Настройки формата : CABAC / 12 Ref Frames
Параметр CABAC формата : Да
Параметр RefFrames формата : 12 кадров
Идентификатор кодека : V_MPEG4/ISO/AVC
Продолжительность : 55 м. 3 с.
Битрейт : 2500 Кбит/сек
Ширина : 692 пикселя
Высота : 568 пикселей
Соотношение сторон : 1,299
Соотношение сторон в оригинале : 4:3
Режим частоты кадров : Постоянный
Частота кадров : 25,000 кадров/сек
Цветовое пространство : YUV
Субдискретизация насыщенности : 4:2:0
Битовая глубина : 8 бит
Тип развёртки : MBAFF
Метод сохранения типа развёртки : Чередующиеся поля
Порядок развёртки : Нижнее поле первое
Бит/(Пиксели*Кадры) : 0.254
Размер потока : 985 Мбайт (87%)
Библиотека кодирования : x264 core 160 r3000 33f9e14
Настройки программы : cabac=1 / ref=12 / deblock=1:-1:-1 / analyse=0x3:0x133 / me=umh / subme=11 / psy=1 / psy_rd=1.00:0.00 / mixed_ref=1 / me_range=32 / chroma_me=1 / trellis=2 / 8x8dct=1 / cqm=0 / deadzone=21,11 / fast_pskip=0 / chroma_qp_offset=-2 / threads=18 / lookahead_threads=4 / sliced_threads=0 / nr=0 / decimate=1 / interlaced=bff / bluray_compat=0 / constrained_intra=0 / bframes=16 / b_pyramid=2 / b_adapt=2 / b_bias=0 / direct=3 / weightb=1 / open_gop=0 / weightp=0 / keyint=250 / keyint_min=25 / scenecut=40 / intra_refresh=0 / rc_lookahead=250 / rc=2pass / mbtree=1 / bitrate=2500 / ratetol=1.0 / qcomp=0.70 / qpmin=0 / qpmax=69 / qpstep=4 / cplxblur=20.0 / qblur=0.5 / vbv_maxrate=25000 / vbv_bufsize=25000 / nal_hrd=none / filler=0 / ip_ratio=1.40 / aq=1:0.80
Default : Да
Forced : Нет

Аудио
Идентификатор : 2
Формат : AC-3
Формат/Информация : Audio Coding 3
Коммерческое название : Dolby Digital
Идентификатор кодека : A_AC3
Продолжительность : 55 м. 4 с.
Вид битрейта : Постоянный
Битрейт : 384 Кбит/сек
Каналы : 2 канала
ChannelLayout : L R
Частота : 48,0 КГц
Частота кадров : 31,250 кадров/сек (1536 SPF)
Метод сжатия : С потерями
Задержка видео : 2 мс.
Размер потока : 151 Мбайт (13%)
Язык : English
ServiceKind/String : Complete Main
Default : Да
Forced : Нет

Меню
00:00:00.000 : en:(01)00:00:00:000
00:04:25.440 : en:(02)00:04:25:440
00:08:31.200 : en:(03)00:08:31:200
00:16:02.880 : en:(04)00:16:02:880
00:22:00.000 : en:(05)00:22:00:000
00:25:18.720 : en:(06)00:25:18:720
00:28:29.760 : en:(07)00:28:29:760
00:31:52.320 : en:(08)00:31:52:320
00:42:10.560 : en:(09)00:42:10:560

Зарегистрируйтесь на ontext.info для получения дополнительных возможностей по работе с сервисом.